<?xml version="1.0" standalone="no"?>
<!DOCTYPE svg PUBLIC "-//W3C//DTD SVG 1.1//EN" "http://www.w3.org/Graphics/SVG/1.1/DTD/svg11.dtd" >
<!--
2013-9-15: Created.
-->
<svg xmlns="http://www.w3.org/2000/svg">
<metadata>
Created by FontForge 20120731 at Sun Sep 15 15:49:41 2013
 By Tyler Wanlass
Created by Tyler Wanlass with FontForge 2.0 (http://fontforge.sf.net)
</metadata>
<defs>
<font id="picto-foundry-vehicle-navigation" horiz-adv-x="512" >
  <font-face 
    font-family="picto-foundry-vehicle-navigation"
    font-weight="500"
    font-stretch="normal"
    units-per-em="512"
    panose-1="2 0 6 3 0 0 0 0 0 0"
    ascent="448"
    descent="-64"
    bbox="-0.146621 -64 512.25 448.2"
    underline-thickness="25.6"
    underline-position="-51.2"
    unicode-range="U+F100-F137"
  />
    <missing-glyph />
    <glyph glyph-name="uniF100" unicode="&#xf100;" horiz-adv-x="433" 
d="M389 251c-24 0 -45 20 -45 44v64h-108v-334h108v64c0 24 21 44 45 44s44 -20 44 -44v-109c0 -24 -20 -44 -44 -44s-45 20 -45 44v25h-108v-29h-40v29h-108v-25c0 -24 -20 -44 -44 -44s-44 20 -44 44v109c0 24 20 44 44 44s44 -20 44 -44v-64h108v334h-108v-64
c0 -24 -20 -44 -44 -44s-44 20 -44 44v109c0 24 20 44 44 44s44 -20 44 -44v-25h108v30h40v-30h108v25c0 24 21 44 45 44s44 -20 44 -44v-109c0 -24 -20 -44 -44 -44zM69 295v109c0 14 -11 24 -25 24s-24 -10 -24 -24v-109c0 -14 10 -24 24 -24s25 10 25 24zM69 -20v109
c0 14 -11 24 -25 24s-24 -10 -24 -24v-109c0 -14 10 -24 24 -24s25 10 25 24zM364 89v-109c0 -14 11 -24 25 -24s24 10 24 24v109c0 14 -10 24 -24 24s-25 -10 -25 -24zM364 404v-109c0 -14 11 -24 25 -24s24 10 24 24v109c0 14 -10 24 -24 24s-25 -10 -25 -24z" />
    <glyph glyph-name="uniF101" unicode="&#xf101;" 
d="M384 448l128 -222l-128 -221h-256l-128 221l128 222h256zM373 23l117 203l-117 203h-234l-117 -203l117 -203h234zM256 347c67 0 121 -54 121 -121s-54 -121 -121 -121s-121 54 -121 121s54 121 121 121zM256 124c56 0 102 46 102 102s-46 103 -102 103
s-102 -47 -102 -103s46 -102 102 -102zM256 298c39 0 71 -33 71 -72s-32 -71 -71 -71s-71 32 -71 71s32 72 71 72zM256 174c29 0 53 23 53 52s-24 53 -53 53s-53 -24 -53 -53s24 -52 53 -52z" />
    <glyph glyph-name="uniF102" unicode="&#xf102;" 
d="M245 -23c83 0 156 45 195 111l14 -14c-43 -70 -121 -117 -209 -117c-135 0 -245 111 -245 246s110 245 245 245c41 0 81 -11 115 -29l-14 -14c-30 15 -65 24 -101 24c-125 0 -226 -101 -226 -226s101 -226 226 -226zM389 427c74 -48 123 -130 123 -224
c0 -42 -13 -87 -30 -122l-120 85c4 13 7 26 7 40c0 47 -31 93 -71 113zM474 110c12 31 19 65 19 93c0 79 -37 151 -100 198l-66 -77c37 -27 61 -73 61 -118c0 -11 -1 -21 -4 -32zM178 203c0 37 30 67 67 67s67 -30 67 -67s-30 -67 -67 -67s-67 30 -67 67zM293 203
c0 26 -22 48 -48 48s-47 -22 -47 -48s21 -48 47 -48s48 22 48 48zM315 374l-15 -18c-17 6 -35 9 -54 9c-89 0 -163 -73 -163 -162s74 -162 163 -162c60 0 112 32 140 81l18 -13c-32 -54 -90 -91 -158 -91c-102 0 -185 83 -185 185s83 184 185 184c25 0 47 -4 69 -13z
M373 334c0 13 6 19 19 19s20 -6 20 -19s-7 -20 -20 -20s-19 7 -19 20zM426 183c0 13 7 20 20 20s19 -7 19 -20s-6 -19 -19 -19s-20 6 -20 19z" />
    <glyph glyph-name="uniF103" unicode="&#xf103;" 
d="M442 337v0v-166h-370v166h370zM247 190v128h-156v-128h156zM423 190v128h-158v-128h158zM144 413v18h224v-18h-224zM106 406v42h19v-42h-19zM386 406v42h18v-42h-18zM480 325c19 -6 32 -23 32 -44v-65c0 -21 -13 -38 -32 -44v-101c0 -26 -17 -46 -41 -53v-46
c0 -17 -14 -31 -31 -31s-31 14 -31 31v44h-236v-44c0 -17 -14 -31 -31 -31s-31 14 -31 31v44c-26 4 -46 27 -46 55v101c-19 6 -33 23 -33 44v65c0 21 14 38 33 44v2c0 31 24 56 55 56h336c31 0 56 -25 56 -56v-2zM33 192v113c-8 -5 -14 -14 -14 -24v-65c0 -10 6 -19 14 -24z
M461 71v256c0 21 -16 37 -37 37h-336c-21 0 -37 -16 -37 -37v-256c0 -21 16 -37 37 -37h336c21 0 37 16 37 37zM493 216v65c0 10 -5 19 -13 24v-113c8 5 13 14 13 24zM73 114v38h54v-38h-54zM390 114v38h53v-38h-53zM168 115v18h179v-18h-179zM168 68v19h179v-19h-179z" />
    <glyph glyph-name="uniF104" unicode="&#xf104;" 
d="M465 392c26 0 47 -20 47 -46v-277c0 -26 -21 -46 -47 -46h-418c-26 0 -47 20 -47 46v277c0 26 21 46 47 46h55v17c0 21 18 39 39 39s39 -18 39 -39v-17h152v17c0 21 18 39 39 39s38 -18 38 -39v-17h56zM350 409v0v-17h41v17c0 11 -9 20 -20 20s-21 -9 -21 -20zM121 409v0
v-17h41v17c0 11 -10 20 -21 20s-20 -9 -20 -20zM47 374c-15 0 -28 -13 -28 -28v-11h474v11c0 15 -13 28 -28 28h-418zM465 41c15 0 28 13 28 28v247h-474v-247c0 -15 13 -28 28 -28h418zM280 282l-17 -80h40l-85 -127l21 92h-49z" />
    <glyph glyph-name="uniF105" unicode="&#xf105;" 
d="M324 78l27 -94c6 -5 10 -12 10 -20c0 -15 -13 -28 -28 -28s-28 13 -28 28c0 3 1 6 2 9h-253c1 -3 1 -6 1 -9c0 -15 -12 -28 -27 -28s-28 13 -28 28c0 8 4 15 9 20v57l180 28l-173 41l5 18l216 -52l71 11l187 361l17 -9zM28 -46c5 0 9 5 9 10s-4 9 -9 9s-10 -4 -10 -9
s5 -10 10 -10zM27 -9v0h303l-22 78l-281 -44v-34zM333 -46c5 0 9 5 9 10s-4 9 -9 9s-9 -4 -9 -9s4 -10 9 -10z" />
    <glyph glyph-name="uniF106" unicode="&#xf106;" 
d="M366 355l51 -50c15 -15 15 -40 0 -55c-7 -7 -18 -12 -28 -12s-20 5 -27 12l-51 50c-15 15 -15 40 0 55c7 7 18 12 28 12s20 -5 27 -12zM403 263c8 8 8 20 0 28l-50 51c-4 4 -9 5 -14 5s-10 -1 -14 -5c-8 -8 -8 -20 0 -28l50 -51c7 -7 21 -7 28 0zM498 316
c19 -19 19 -48 0 -67l-118 -118c-9 -9 -22 -14 -34 -14s-24 5 -33 14l-25 24l-45 -43l-29 -10l-7 -28l-31 -10l-9 -28l-29 -10l-9 -28c-11 -6 -24 -9 -37 -9c-43 0 -92 26 -92 26l214 214l-19 20c-19 19 -19 48 0 67l118 118c9 9 21 14 33 14s25 -5 34 -14zM233 129l42 40
l-47 46l-195 -194c16 -6 39 -13 59 -13c8 0 15 1 21 3l7 21l3 9l9 3l20 7l6 19l3 9l10 3l20 7l5 18l2 10l10 3zM485 262c5 5 8 12 8 20s-3 16 -8 21l-118 118c-5 5 -13 8 -21 8s-15 -3 -20 -8l-118 -118c-5 -5 -8 -13 -8 -21s3 -15 8 -20l81 -80l10 -10l27 -28
c5 -5 12 -8 20 -8s16 3 21 8z" />
    <glyph glyph-name="uniF107" unicode="&#xf107;" 
d="M413 142c-14 0 -46 -12 -57 -17l-7 16c4 2 44 20 64 20s61 -18 65 -20l-8 -16c-11 5 -43 17 -57 17zM296 142c0 -22 -18 -40 -40 -40s-40 18 -40 40s18 40 40 40s40 -18 40 -40zM256 102c22 0 40 18 40 40s-18 40 -40 40s-40 -18 -40 -40s18 -40 40 -40zM247 200v248h19
v-32h96v-18h-96v-46h96v-18h-96v-46h96v-19h-96v-69c28 -4 49 -29 49 -58c0 -32 -27 -58 -59 -58s-58 26 -58 58c0 29 21 54 49 58zM44 125l-8 16c2 1 42 20 66 20s62 -19 64 -20l-8 -16c-10 5 -40 17 -56 17c-17 0 -48 -12 -58 -17zM505 -9c-27 12 -75 30 -88 30
c-6 0 -16 -5 -26 -11c-15 -9 -32 -20 -52 -20c-19 0 -37 10 -53 19c-11 6 -22 12 -30 12c-7 0 -18 -5 -28 -11c-16 -9 -33 -20 -55 -20s-42 11 -57 20c-10 6 -20 11 -27 11c-14 0 -57 -18 -81 -30l-8 17c7 3 66 32 89 32c12 0 24 -7 36 -14c14 -8 31 -17 48 -17s32 8 46 16
c13 7 25 15 37 15c13 0 25 -7 39 -15s29 -16 44 -16s28 8 42 16c12 7 25 15 36 15c21 0 87 -29 95 -32z" />
    <glyph glyph-name="uniF108" unicode="&#xf108;" 
d="M436 334l76 -47v-106c0 -26 -12 -48 -38 -48h-3v-66c0 -17 -14 -32 -31 -32s-32 15 -32 32v66h-306v-66c0 -17 -15 -32 -32 -32s-31 15 -31 32v67c-22 4 -39 24 -39 47v107l76 46c0 26 21 114 47 114h266c26 0 47 -88 47 -114zM125 429c-10 -8 -29 -63 -30 -93h322
c-1 30 -20 85 -30 93h-262zM493 181v95l-66 41h-342l-66 -39v-97c0 -16 12 -29 28 -29h427c13 0 19 10 19 29zM86 254c21 0 38 -17 38 -38s-17 -38 -38 -38s-38 17 -38 38s17 38 38 38zM86 197c10 0 19 9 19 19s-9 19 -19 19s-19 -9 -19 -19s9 -19 19 -19zM427 254
c21 0 38 -17 38 -38s-17 -38 -38 -38s-38 17 -38 38s17 38 38 38zM427 197c10 0 19 9 19 19s-9 19 -19 19s-19 -9 -19 -19s9 -19 19 -19zM144 252c83 50 147 51 223 0l-10 -16c-70 47 -126 47 -203 0z" />
    <glyph glyph-name="uniF109" unicode="&#xf109;" 
d="M256 448c141 0 256 -115 256 -256s-115 -256 -256 -256s-256 115 -256 256s115 256 256 256zM256 -45c131 0 237 106 237 237s-106 237 -237 237s-237 -106 -237 -237s106 -237 237 -237zM403 252c31 0 55 -25 55 -56v-8c0 -31 -24 -56 -55 -56h-294c-31 0 -55 25 -55 56
v8c0 31 24 56 55 56h294zM440 188v8c0 21 -16 37 -37 37h-294c-21 0 -37 -16 -37 -37v-8c0 -21 16 -37 37 -37h294c21 0 37 16 37 37z" />
    <glyph glyph-name="uniF10A" unicode="&#xf10a;" horiz-adv-x="306" 
d="M269 221c20 0 37 -17 37 -37s-17 -37 -37 -37h-105v-211h-19v211h-108c-20 0 -37 17 -37 37s17 37 37 37h12c10 15 29 49 29 65v88h-9c-20 0 -37 17 -37 37s17 37 37 37h168c20 0 37 -17 37 -37s-17 -37 -37 -37h-11v-88c0 -14 17 -46 29 -65h14zM69 393h168
c10 0 18 8 18 18s-8 18 -18 18h-168c-10 0 -18 -8 -18 -18s8 -18 18 -18zM96 286c0 -19 -15 -48 -25 -65h162c-10 17 -26 47 -26 65v88h-111v-88zM269 166c10 0 19 8 19 18s-9 19 -19 19h-232c-10 0 -18 -9 -18 -19s8 -18 18 -18h232z" />
    <glyph glyph-name="uniF10B" unicode="&#xf10b;" 
d="M465 336c26 0 47 -22 47 -48v-104c0 -26 -21 -47 -47 -47h-15v44h-35v-25c0 -26 -21 -47 -47 -47h-205v26c0 26 -22 48 -48 48h-65v67h-31v-74h-19v167h19v-74h31v64c26 14 47 36 59 63h103v33h-75v19h168v-19h-74v-33h119c0 -3 -1 -6 -1 -9c0 -46 19 -55 65 -55h1v-35
h35v39h15zM493 184v104c0 14 -10 27 -24 29v-20v-19h-19h-35h-19v19v16c-55 5 -65 34 -66 64h-209c-12 -23 -30 -41 -52 -55v-120h46c37 0 67 -30 67 -67v-7h186c16 0 28 12 28 28v25v19h19h35h19v-19v-25c14 2 24 14 24 28z" />
    <glyph glyph-name="uniF10C" unicode="&#xf10c;" horiz-adv-x="510" 
d="M496 343c18 -18 18 -47 0 -65l-116 -117c-9 -9 -21 -13 -33 -13s-23 4 -32 13l-29 29l-135 -135c17 -31 12 -69 -14 -95c-16 -16 -36 -24 -57 -24s-40 8 -56 24c-31 31 -31 82 0 113c16 16 35 24 56 24c9 0 19 -1 27 -4l138 138l-22 22c-18 18 -18 47 0 65l116 116
c9 9 21 14 33 14s23 -5 32 -14zM333 403l-19 -20l131 -131l19 20zM124 -27c12 12 18 26 18 43s-6 32 -18 44s-27 18 -44 18s-31 -6 -43 -18s-19 -27 -19 -44s7 -31 19 -43s26 -19 43 -19s32 7 44 19zM140 71l133 132l-15 15l-134 -134c5 -3 9 -7 13 -11c1 -1 2 -1 3 -2z
M367 175l65 64l-131 131l-65 -65c-11 -11 -11 -28 0 -39l92 -91c5 -5 12 -9 19 -9s15 4 20 9zM483 291c11 11 11 28 0 39l-92 91c-5 5 -12 9 -19 9s-15 -4 -20 -9l-6 -5l131 -131zM307 261c0 12 7 18 19 18s18 -6 18 -18s-6 -19 -18 -19s-19 7 -19 19z" />
    <glyph glyph-name="uniF10D" unicode="&#xf10d;" 
d="M505 343c10 -30 9 -54 -2 -70s-32 -23 -62 -23c-18 0 -35 3 -49 5c-9 1 -17 2 -21 2c-16 0 -59 -26 -91 -48c45 -4 126 -17 162 -53c31 -31 44 -76 35 -116c-7 -28 -28 -66 -91 -87c-14 -5 -27 -7 -38 -7c-17 0 -30 5 -39 16c-22 25 -15 74 -11 105c1 9 2 16 2 20
c0 14 -19 47 -38 76c-5 -45 -17 -122 -52 -157c-24 -24 -58 -38 -91 -38c-52 0 -92 35 -112 94c-10 30 -9 53 2 69s32 23 62 23c18 0 35 -2 49 -4c9 -1 17 -2 21 -2c14 0 47 19 76 38c-45 5 -122 17 -157 52c-31 31 -44 76 -35 116c7 28 27 66 90 87c36 12 63 9 78 -9
c22 -25 15 -73 11 -104c-1 -9 -3 -17 -3 -21c0 -16 25 -57 47 -89c2 36 12 138 54 180c24 24 58 38 91 38c52 0 92 -34 112 -93zM74 253c33 -33 118 -44 158 -47c-19 28 -51 77 -51 101c0 6 1 14 2 24c4 26 10 69 -6 87c-5 6 -13 9 -24 9c-9 0 -19 -2 -31 -6
c-43 -14 -69 -39 -77 -72c-8 -32 4 -71 29 -96zM195 21c33 33 44 117 47 157c-28 -19 -77 -51 -101 -51c-6 0 -14 1 -24 2c-14 2 -30 5 -46 5c-23 0 -38 -5 -45 -15s-7 -27 1 -51c17 -51 49 -79 92 -79c28 0 56 12 76 32zM427 141c-33 33 -117 45 -157 48
c19 -28 51 -78 51 -102c0 -6 -1 -13 -2 -23c-4 -26 -10 -70 6 -88c10 -11 28 -12 55 -3c43 14 69 39 77 72c8 32 -5 71 -30 96zM486 285c7 10 7 27 -1 51c-17 51 -49 80 -92 80c-28 0 -56 -12 -76 -32c-33 -33 -44 -118 -47 -158c28 19 77 52 101 52c6 0 14 -2 24 -3
c14 -2 30 -4 46 -4c23 0 38 4 45 14z" />
    <glyph glyph-name="uniF10E" unicode="&#xf10e;" 
d="M0 448h512l-211 -235v-196l-90 -81v277zM230 -22l52 48v185h-52v-233zM291 230l179 199h-428l179 -199h70z" />
    <glyph glyph-name="uniF10F" unicode="&#xf10f;" 
d="M456 179h56v-88c0 -22 -16 -41 -37 -45c-7 -26 -30 -44 -58 -44c-27 0 -50 18 -57 43h-24c-7 -25 -30 -43 -57 -43s-51 19 -58 44c-23 2 -41 21 -41 45l9 293c0 25 21 46 46 46h185zM207 351l-5 -158h70l67 114v17c0 15 -13 27 -28 27h-104zM279 20c23 0 41 18 41 41
s-18 42 -41 42s-41 -19 -41 -42s18 -41 41 -41zM417 20c23 0 41 18 41 41s-18 42 -41 42s-41 -19 -41 -42s18 -41 41 -41zM494 91v0v69h-53l-3 16l-34 235h-169c-15 0 -27 -12 -27 -27v-1v0l-1 -13h104c25 0 46 -21 46 -46v-25l-78 -125h-78l-2 -83c0 -13 8 -23 20 -26
c2 31 28 56 60 56s59 -25 60 -57h19c1 32 27 57 59 57c31 0 58 -24 60 -55c10 4 17 14 17 25zM125 45v403h18v-423l-143 11l1 18z" />
    <glyph glyph-name="uniF110" unicode="&#xf110;" horiz-adv-x="497" 
d="M437 192c27 0 60 -23 60 -50v-156c0 -27 -33 -50 -60 -50s-61 23 -61 50v156c0 27 34 50 61 50zM476 -14v156c0 13 -21 29 -39 29s-40 -16 -40 -29v-156c0 -13 22 -29 40 -29s39 16 39 29zM158 381c2 14 8 26 17 36h-86v21h113c13 6 27 10 42 10c16 0 30 -3 43 -10v0h118
v-21h-92c9 -10 15 -22 17 -36l2 -12h-176zM244 427c-27 0 -52 -16 -62 -38h124c-10 22 -35 38 -62 38zM243 241l31 22l12 -17l-43 -30l-43 30l13 17zM243 189l31 22l12 -17l-43 -31l-43 31l13 17zM60 192c27 0 60 -23 60 -50v-156c0 -27 -33 -50 -60 -50s-60 23 -60 50v156
c0 27 33 50 60 50zM99 -14v156c0 13 -21 29 -39 29s-39 -16 -39 -29v-156c0 -13 21 -29 39 -29s39 16 39 29zM397 221v2l-43 -36v-74c0 -29 -23 -52 -52 -52h-115c-29 0 -53 23 -53 52v72l-42 32l-1 6v-2h-81v21h76l-27 104h368l-22 -104h72v-21h-80zM86 325l19 -75l44 75
h-63zM248 126l124 103l-57 96h-142l-58 -99zM385 248l16 77h-62z" />
    <glyph glyph-name="uniF111" unicode="&#xf111;" horiz-adv-x="490" 
d="M124 291v98h190v-98h-190zM126 219c0 12 7 19 19 19s18 -7 18 -19s-6 -18 -18 -18s-19 6 -19 18zM201 219c0 12 6 19 18 19s19 -7 19 -19s-7 -18 -19 -18s-18 6 -18 18zM275 219c0 12 7 19 19 19s18 -7 18 -19s-6 -18 -18 -18s-19 6 -19 18zM487 350c3 -55 3 -108 2 -157
c-1 -45 -3 -81 -7 -107s-9 -43 -14 -50s-11 -11 -18 -12h-3c-7 0 -13 2 -18 7c-6 5 -10 14 -13 26s-4 26 -4 41v51c1 41 0 70 -2 88c-2 22 -10 37 -22 44c-3 2 -7 3 -11 4v-330h60v-19h-60h-316h-61v19h61v446c0 13 5 24 14 33s20 14 33 14h223c13 0 24 -5 33 -14
s13 -20 13 -33v-97c7 -1 14 -4 20 -7c18 -10 28 -29 31 -58c2 -18 3 -48 2 -90c-1 -62 4 -96 12 -104c2 -2 3 -2 6 -2c5 1 9 12 13 33s7 52 9 92s2 89 0 147c-4 -1 -9 1 -14 6s-9 10 -12 18c-7 17 -6 28 1 34l-31 36l15 12l58 -68v-3zM80 -45h279v446c0 8 -4 15 -9 20
s-11 8 -19 8h-223c-8 0 -15 -3 -20 -8s-8 -12 -8 -20v-446z" />
    <glyph glyph-name="uniF112" unicode="&#xf112;" 
d="M483 41c17 -4 29 -19 29 -37c0 -21 -18 -39 -39 -39s-38 18 -38 39c0 18 12 33 29 37v156h-129v-156c17 -4 29 -19 29 -37c0 -21 -18 -39 -39 -39s-39 18 -39 39c0 18 12 33 29 37v156h-125v-156c17 -4 29 -19 29 -37c0 -21 -18 -39 -39 -39s-39 18 -39 39
c0 18 12 33 29 37v156h-141v175c-17 4 -29 19 -29 37c0 21 18 39 39 39s38 -18 38 -39c0 -18 -12 -33 -29 -37v-156h122v156c-17 4 -29 19 -29 37c0 21 18 39 39 39s39 -18 39 -39c0 -18 -12 -33 -29 -37v-156h125v156c-17 4 -29 19 -29 37c0 21 18 39 39 39s39 -18 39 -39
c0 -18 -12 -33 -29 -37v-156h129v156c-17 4 -29 19 -29 37c0 21 17 39 38 39s39 -18 39 -39c0 -18 -12 -33 -29 -37v-156v-9v-166z" />
    <glyph glyph-name="uniF113" unicode="&#xf113;" 
d="M256 448l256 -443h-512zM256 411l-224 -388h448zM256 335l160 -278h-320zM256 298l-128 -222h256z" />
    <glyph glyph-name="uniF114" unicode="&#xf114;" 
d="M0 293c0 85 115 155 257 155v-309c-142 0 -257 69 -257 154zM238 158v271c-15 -1 -30 -3 -44 -5v-261c14 -2 29 -4 44 -5zM175 421c-90 -20 -156 -71 -156 -128s66 -107 156 -127v255zM300 287v18h212v-18h-212zM300 399v19h212v-19h-212zM300 174v19h212v-19h-212z" />
    <glyph glyph-name="uniF115" unicode="&#xf115;" 
d="M136 448v-56h94v-94h-94v-60l-136 105zM215 377v0h-95v40l-95 -74l95 -74v44h95v64zM512 343l-136 -105v60h-94v94h94v56zM297 313v0h95v-44l95 74l-95 74v-40h-95v-64z" />
    <glyph glyph-name="uniF116" unicode="&#xf116;" horiz-adv-x="399" 
d="M199 368c65 0 118 -54 118 -119s-53 -118 -118 -118s-119 53 -119 118s54 119 119 119zM199 149c55 0 100 45 100 100s-45 101 -100 101s-101 -46 -101 -101s46 -100 101 -100zM199 448c110 0 200 -89 200 -199c0 -108 -185 -299 -193 -307l-7 -6l-6 6
c-8 8 -193 199 -193 307c0 110 89 199 199 199zM199 -38c33 35 182 197 182 287c0 100 -82 181 -182 181s-181 -81 -181 -181c0 -90 148 -252 181 -287z" />
    <glyph glyph-name="uniF117" unicode="&#xf117;" horiz-adv-x="392" 
d="M196 439v-9c-99 0 -178 -79 -178 -178c0 -75 46 -140 112 -166l3 -1l60 -112l61 110l3 2c68 25 117 90 117 167c0 99 -79 178 -178 178v9v9c108 0 196 -88 196 -196c0 -85 -54 -157 -129 -184l-3 8l8 -4l-75 -136l-74 138l8 4l-3 -8c-73 29 -124 99 -124 182
c0 108 88 196 196 196v-9zM196 153v-8v0c-59 0 -107 48 -107 107v0c0 59 48 107 107 107v0c59 0 107 -48 107 -107v0c0 -59 -48 -107 -107 -107v8v9v0c50 0 90 40 90 90v0c0 50 -40 90 -90 90v0c-50 0 -90 -40 -90 -90v0c0 -50 40 -90 90 -90v-9z" />
    <glyph glyph-name="uniF118" unicode="&#xf118;" horiz-adv-x="509" 
d="M0 220l509 228l-223 -512l-21 259zM284 196l14 -185l175 400l-401 -179l195 -19c9 -1 16 -8 17 -17z" />
    <glyph glyph-name="uniF119" unicode="&#xf119;" horiz-adv-x="399" 
d="M199 448c110 0 200 -89 200 -199c0 -108 -185 -298 -193 -306l-6 -7l-7 6c-8 8 -193 199 -193 307c0 110 89 199 199 199zM199 350c-55 0 -101 -46 -101 -101s46 -100 101 -100s100 45 100 100s-45 101 -100 101z" />
    <glyph glyph-name="uniF11A" unicode="&#xf11a;" horiz-adv-x="392" 
d="M196 448c108 0 196 -88 196 -196c0 -81 -51 -154 -126 -183l-73 -133l-72 135c-74 31 -121 101 -121 181c0 108 88 196 196 196zM286 252c0 49 -41 90 -90 90s-90 -41 -90 -90s41 -90 90 -90s90 41 90 90z" />
    <glyph glyph-name="uniF11B" unicode="&#xf11b;" horiz-adv-x="509" 
d="M0 220l509 228l-223 -512l-21 259z" />
    <glyph glyph-name="uniF11C" unicode="&#xf11c;" 
d="M255 193c-50 0 -91 41 -91 91s41 91 91 91v0c50 0 90 -41 90 -91s-40 -91 -90 -91zM255 356c-40 0 -73 -32 -73 -72s33 -73 73 -73s72 33 72 73s-32 72 -72 72zM191 132c-61 26 -101 85 -101 152c0 91 74 164 165 164s164 -73 164 -164c0 -67 -42 -129 -105 -153
l-62 -113zM255 430c-80 0 -146 -66 -146 -146c0 -60 36 -114 92 -136l3 -1l48 -91l49 90l4 1c57 21 95 76 95 137c0 80 -65 146 -145 146zM386 85l126 -137h-512l126 137h24l-108 -119h428l-108 119h24z" />
    <glyph glyph-name="uniF11D" unicode="&#xf11d;" 
d="M341 211c42 0 76 -35 76 -77s-34 -76 -76 -76s-76 34 -76 76s34 77 76 77zM341 77c32 0 58 25 58 57s-26 58 -58 58s-58 -26 -58 -58s26 -57 58 -57zM341 260c69 0 126 -57 126 -126c0 -67 -114 -185 -119 -190l-7 -7l-6 7c-5 5 -120 123 -120 190c0 69 57 126 126 126z
M341 -36c35 37 108 123 108 170c0 59 -49 107 -108 107s-107 -48 -107 -107c0 -47 72 -133 107 -170zM339 437l173 -47v-447l-96 25l3 3c4 4 7 8 11 12l64 -17v411l-147 39v-133h-17v134l-148 -31v-412l68 14c5 -5 9 -10 14 -15l-91 -19l-173 47v447l174 -46zM165 -25v411
l-147 39v-411z" />
    <glyph glyph-name="uniF11E" unicode="&#xf11e;" 
d="M191 132c-61 26 -101 85 -101 152c0 91 73 164 164 164s165 -73 165 -164c0 -67 -42 -129 -105 -153l-62 -113zM182 284c0 -40 32 -73 72 -73s73 33 73 73s-33 72 -73 72s-72 -32 -72 -72zM386 85l126 -137h-512l126 137h24l-108 -119h428l-108 119h24z" />
    <glyph glyph-name="uniF11F" unicode="&#xf11f;" 
d="M341 260c69 0 126 -57 126 -126c0 -67 -114 -185 -119 -190l-7 -7l-6 7c-5 5 -120 123 -120 190c0 69 57 126 126 126zM283 134c0 -32 26 -57 58 -57s57 25 57 57s-25 58 -57 58s-58 -26 -58 -58zM339 437l173 -47v-447l-96 25l3 3c4 4 7 8 11 12l64 -18v169v243l-147 39
v-133h-6h-11v134l-148 -31v-412l68 14c5 -5 9 -10 14 -15l-91 -19l-173 46v448l174 -46zM165 -25v411l-147 39v-411z" />
    <glyph glyph-name="uniF120" unicode="&#xf120;" 
d="M80 216c0 6 4 9 10 9s9 -3 9 -9s-3 -10 -9 -10s-10 4 -10 10zM422 305c25 0 47 -9 64 -26s26 -38 26 -63c0 -16 -4 -31 -12 -45s-19 -25 -33 -33s-29 -12 -45 -12c-25 0 -46 9 -63 26s-26 39 -26 64c0 29 11 52 34 70l-22 31l-60 -116l-119 133l-146 18l-7 11l126 11h8
h13c19 -4 62 -21 128 -50l40 11c1 1 2 1 3 2l-40 74l-54 20l7 17l59 -21l17 -30h57v-39c16 4 32 4 48 2c28 -3 53 -14 75 -32c-3 -2 -8 -7 -15 -12v0c-18 15 -39 23 -62 26c-22 3 -44 -1 -65 -11l25 -35c12 6 25 9 39 9zM340 359h19v19h-29zM422 145c13 0 25 3 36 9
s20 15 26 26s10 23 10 36s-4 24 -10 35s-15 20 -26 26s-23 10 -36 10c-10 0 -19 -2 -28 -6l36 -51l-15 -11l-37 52c-18 -14 -27 -32 -27 -55c0 -20 7 -37 21 -51s30 -20 50 -20zM139 374h1v0h-1zM90 305c25 0 46 -9 63 -26s26 -38 26 -63s-9 -47 -26 -64s-38 -26 -63 -26
s-47 9 -64 26s-26 39 -26 64s9 46 26 63s39 26 64 26zM90 145c20 0 36 6 50 20s21 31 21 51s-7 36 -21 50s-30 21 -50 21s-37 -7 -51 -21s-21 -30 -21 -50s7 -37 21 -51s31 -20 51 -20z" />
    <glyph glyph-name="uniF121" unicode="&#xf121;" horiz-adv-x="332" 
d="M22 405c-12 0 -22 10 -22 22s10 21 22 21h61c12 0 21 -9 21 -21s-9 -22 -21 -22h-61zM104 390c24 0 228 -151 228 -189v-218c0 -26 -21 -47 -47 -47h-238c-26 0 -47 21 -47 47v407h104zM313 43v156h-294v-156h294zM103 371h-84v-153h281c-14 16 -41 42 -84 76
c-56 45 -102 73 -113 77zM285 -45c16 0 28 12 28 28v41h-294v-41c0 -16 12 -28 28 -28h238z" />
    <glyph glyph-name="uniF122" unicode="&#xf122;" 
d="M256 448c141 0 256 -115 256 -256s-115 -256 -256 -256s-256 115 -256 256c0 68 26 129 69 175v0l6 6v0l7 7v0c46 42 107 68 174 68zM256 -45c62 0 119 24 161 63l-156 156h-57v-135h-19v212l-103 102c-39 -42 -63 -99 -63 -161c0 -131 106 -237 237 -237zM243 193
l-39 39v-39h39zM204 258l65 -65h11c35 0 62 28 62 63s-27 62 -62 62h-76v-60zM431 31c39 42 62 99 62 161c0 131 -106 237 -237 237c-62 0 -119 -23 -161 -62l90 -90v60h6h13h76c45 0 81 -36 81 -81c0 -42 -33 -77 -74 -81z" />
    <glyph glyph-name="uniF123" unicode="&#xf123;" horiz-adv-x="348" 
d="M328 165c63 -114 -31 -229 -154 -229s-217 115 -154 229c65 118 117 161 154 283c37 -122 89 -165 154 -283zM309 30c23 38 22 82 -1 124c-22 41 -42 72 -62 102c-27 41 -51 78 -72 127c-21 -49 -45 -86 -72 -127c-20 -30 -40 -61 -62 -102c-23 -42 -24 -86 -1 -124
c26 -44 78 -72 135 -72s109 28 135 72zM86 100c6 -43 43 -76 88 -76h3v-23h-3c-57 0 -104 44 -111 99h23z" />
    <glyph glyph-name="uniF124" unicode="&#xf124;" 
d="M509 313c10 -18 -5 -35 -24 -35s-33 17 -23 35s17 24 23 43c6 -19 14 -25 24 -43zM490 387l-9 -16l-42 23l-123 -169v0c-8 -16 -23 -24 -42 -24h-143c-27 0 -48 21 -48 48v103c0 10 2 20 8 28l-72 -4c-2 -23 -4 -97 37 -117l-8 -16c-61 29 -47 137 -46 142l1 8l118 7
c3 1 7 1 10 1h7h2v0h8h8v29h-20v18h116v-18h-16v-29h14h18h6c14 0 26 -15 35 -24l128 38zM174 401v0h44v20h-44v-20zM301 234l117 159l-116 -36c-5 10 -16 26 -28 26h-14h-9h-87h-8h-18l-14 -1c-14 -3 -24 -15 -24 -30v-103c0 -17 14 -31 31 -31h143c11 0 22 7 27 16v0z" />
    <glyph glyph-name="uniF125" unicode="&#xf125;" 
d="M256 448c141 0 256 -115 256 -256s-115 -256 -256 -256s-256 115 -256 256s115 256 256 256zM256 -45c131 0 237 106 237 237s-106 237 -237 237s-237 -106 -237 -237s106 -237 237 -237zM280 337c45 0 81 -36 81 -81s-36 -82 -81 -82h-76v-135h-19v298h6h13h76zM280 193
c35 0 62 28 62 63s-27 62 -62 62h-76v-125h76z" />
    <glyph glyph-name="uniF126" unicode="&#xf126;" 
d="M296 448c126 0 219 -82 216 -212c-2 -58 -18 -112 -49 -157l-429 -51s-17 20 -27 58c-1 0 -1 1 -1 1v4c-6 27 -9 61 0 104c22 107 83 222 238 248c18 3 35 5 52 5zM25 191c-7 -34 -6 -62 -2 -85c48 0 190 5 242 76c41 56 37 86 30 99s-22 21 -41 21h-188
c-18 -31 -32 -68 -41 -111zM452 98c25 39 39 87 40 138c1 54 -16 102 -49 136c-35 36 -88 56 -147 56c-16 0 -32 -2 -49 -5c-73 -12 -129 -46 -168 -101h175c26 0 49 -12 59 -32c11 -21 13 -59 -32 -120c-56 -76 -193 -84 -250 -84h-3c5 -17 12 -29 16 -36zM233 208
c-17 0 -30 13 -30 30s13 31 30 31s30 -14 30 -31s-13 -30 -30 -30zM233 248c-6 0 -10 -4 -10 -10s4 -10 10 -10s10 4 10 10s-4 10 -10 10z" />
    <glyph glyph-name="uniF127" unicode="&#xf127;" horiz-adv-x="485" 
d="M485 169l-42 -52h-206v-181h-18v181h-196v103h196v55h-177l-42 52l42 51h177v70h18v-70h196v-103h-196v-55h206zM24 327l27 -33h364v66h-364zM42 136h392l27 33l-27 33h-392v-66z" />
    <glyph glyph-name="uniF128" unicode="&#xf128;" horiz-adv-x="502" 
d="M0 -64v512h19v-512h-19zM484 -64v512h18v-512h-18zM260 -64v512h37v-512h-37zM195 -64v194h37v-194h-37zM195 169v65h37v-65h-37zM195 373v75h37v-75h-37zM195 271v65h37v-65h-37z" />
    <glyph glyph-name="uniF129" unicode="&#xf129;" 
d="M247 359v38h18v-38h-18zM53 183v18h37v-18h-37zM153 76l-30 -30l-13 13l30 30zM105 327l13 13l21 -21l-13 -13zM256 448c141 0 256 -115 256 -256c0 -78 -35 -147 -89 -194h-334c-54 47 -89 116 -89 194c0 141 115 256 256 256zM416 17c49 45 77 108 77 175
c0 131 -106 237 -237 237s-237 -106 -237 -237c0 -67 28 -130 77 -175h320zM402 352c41 -40 67 -97 67 -159c0 -63 -26 -120 -68 -160c-5 4 -10 9 -14 13v0l-20 21l13 13l20 -20c29 33 48 76 50 123h-28v18h28c-2 47 -20 90 -49 124l-19 -19l-13 13l21 21v0l6 6zM254 238
l73 120l-33 -139c6 -8 9 -17 9 -27c0 -26 -21 -47 -47 -47s-46 21 -46 47c0 25 20 44 44 46zM256 164c15 0 28 13 28 28s-13 28 -28 28s-28 -13 -28 -28s13 -28 28 -28z" />
    <glyph glyph-name="uniF12A" unicode="&#xf12a;" 
d="M256 448c141 0 256 -115 256 -256s-115 -256 -256 -256s-256 115 -256 256s115 256 256 256zM256 240c-26 0 -48 -22 -48 -48s22 -48 48 -48s48 22 48 48s-22 48 -48 48zM256 429c-108 0 -200 -73 -228 -172c37 12 136 42 228 42c93 0 193 -30 228 -42
c-28 100 -120 172 -228 172zM19 192c0 -122 92 -223 211 -236c-2 127 -95 236 -211 253v-17zM284 -44c118 14 209 115 209 236v16c-115 -19 -207 -126 -209 -252z" />
    <glyph glyph-name="uniF12B" unicode="&#xf12b;" horiz-adv-x="462" 
d="M326 448l136 -135v-191l-136 -136h-67v-50h-19v50h-19v-50h-18v50h-68l-135 136v191l135 135h191zM443 129v0v176l-124 124h-176l-124 -124v-176l124 -124h176z" />
    <glyph glyph-name="uniF12C" unicode="&#xf12c;" 
d="M9 35v123h88v-19h-70v-33h49v-19h-49v-33h70v-19h-88zM256 251c33 0 59 -26 59 -59s-26 -59 -59 -59c-30 0 -55 22 -59 51l-93 78l118 -22c10 7 21 11 34 11zM256 151c22 0 40 19 40 41s-18 40 -40 40s-40 -18 -40 -40s18 -41 40 -41zM512 192c0 -60 -21 -116 -56 -160
c3 -5 5 -10 5 -16c0 -16 -14 -29 -30 -29s-30 13 -30 29s14 30 30 30c4 0 7 -1 10 -2c32 41 52 92 52 148c0 131 -106 237 -237 237c-128 0 -232 -102 -237 -229h-19c5 137 117 248 256 248c141 0 256 -115 256 -256z" />
    <glyph glyph-name="uniF12D" unicode="&#xf12d;" 
d="M9 35v123h88v-19h-70v-33h49v-19h-49v-33h70v-19h-88zM315 192c0 -5 -1 -10 -2 -14l62 -106l-106 62c-4 -1 -8 -1 -13 -1c-33 0 -59 26 -59 59s26 59 59 59s59 -26 59 -59zM256 151c22 0 40 19 40 41s-18 40 -40 40s-40 -18 -40 -40s18 -41 40 -41zM512 192
c0 -60 -21 -116 -56 -160c3 -5 5 -10 5 -16c0 -16 -14 -29 -30 -29s-30 13 -30 29s14 30 30 30c4 0 7 -1 10 -2c32 41 52 92 52 148c0 131 -106 237 -237 237c-128 0 -232 -102 -237 -229h-19c5 137 117 248 256 248c141 0 256 -115 256 -256z" />
    <glyph glyph-name="uniF12E" unicode="&#xf12e;" 
d="M473 410l39 -152l-21 -5l-36 140l-138 34l5 21zM277 403l151 -38l39 -152l-21 -5l-36 139l-138 35zM232 357l150 -37l39 -152l-20 -6l-36 140l-139 35zM186 312l151 -38l39 -152l-21 -5l-35 140l-139 35zM141 267l151 -38l39 -152l-21 -5l-36 139l-138 35zM96 222
l151 -38l39 -152l-21 -5l-36 139l-138 35zM50 176l151 -37l39 -152l-20 -6l-36 140l-139 35zM5 131l151 -38l39 -152l-21 -5l-35 140l-139 34z" />
    <glyph glyph-name="uniF12F" unicode="&#xf12f;" horiz-adv-x="503" 
d="M441 233h62v-71h-62c-16 0 -30 10 -34 25h-144v-154h-7c19 -1 34 -17 34 -36v-61h-72v61c0 19 15 35 34 36h-7v154h-150c-4 -15 -18 -25 -34 -25h-61v71h61c17 0 31 -11 35 -27h149v146c-15 4 -27 18 -27 35v61h72v-61c0 -16 -12 -31 -27 -35v-146h144c4 16 17 27 34 27z
M61 180c10 0 18 8 18 18s-8 17 -18 17h-43v-35h43zM271 -3c0 10 -7 18 -17 18s-17 -8 -17 -18v-43h34v43zM254 369c10 0 17 8 17 18v43h-34v-43c0 -10 7 -18 17 -18zM484 180v35h-43c-10 0 -17 -7 -17 -17s7 -18 17 -18h43z" />
    <glyph glyph-name="uniF130" unicode="&#xf130;" 
d="M256 448c141 0 256 -115 256 -256s-115 -256 -256 -256s-256 115 -256 256s115 256 256 256zM417 266c-13 27 -32 50 -56 67l-67 -101c4 -3 6 -7 9 -11zM265 367v-121c5 -1 9 -2 13 -4l67 102c-24 14 -51 22 -80 23zM246 367c-32 -2 -62 -12 -87 -29l74 -96c4 2 8 3 13 4
v121zM144 327c-21 -18 -38 -40 -49 -66l114 -41c2 4 5 8 8 11zM81 191c0 -13 1 -26 4 -38l116 34v5c0 4 0 7 1 11l-114 41c-5 -17 -7 -35 -7 -53zM90 135c10 -29 26 -54 48 -74l78 94c-4 4 -8 9 -10 14zM247 15v123c-6 1 -12 2 -17 5l-77 -94c27 -20 59 -32 94 -34zM220 192
c0 -20 16 -37 36 -37s37 17 37 37s-17 36 -37 36s-36 -16 -36 -36zM265 15c33 2 64 13 90 30l-75 97c-5 -2 -10 -3 -15 -4v-123zM369 56c25 21 44 48 55 79l-118 33c-3 -6 -7 -11 -11 -15zM429 153c3 12 4 25 4 38c0 20 -3 39 -9 57l-114 -44c1 -4 1 -8 1 -12v-6z" />
    <glyph glyph-name="uniF131" unicode="&#xf131;" horiz-adv-x="466" 
d="M114 63v-19h-114l233 404l233 -404h-115v19h82l-200 347l-200 -347h81zM302 64h-20v37h-105v-37h-19v37h-9l-10 68h23l12 58h116l11 -58h21l-10 -68h-10v-37zM189 208l-8 -39h101l-8 39h-85zM184 126v25h-26v-25h26zM276 151v-25h26v25h-26zM225 -4c9 -2 11 -8 11 -11
c1 -5 3 -17 -54 -49l-9 17c16 9 31 19 39 26l-9 3c-14 4 -33 8 -74 15c-8 1 -27 4 -27 17c0 6 -1 19 66 34l5 -18c-17 -4 -34 -10 -44 -14h3c42 -7 60 -12 75 -16c6 -2 12 -3 18 -4zM368 -4c9 -2 11 -8 11 -11c1 -5 3 -17 -54 -49l-9 17c16 9 32 19 40 26c-3 1 -7 2 -10 3
c-14 4 -33 8 -74 15c-8 1 -26 4 -26 17c0 6 -1 19 66 34l4 -18c-17 -4 -33 -10 -43 -14h2c42 -7 61 -12 76 -16c6 -2 11 -3 17 -4z" />
    <glyph glyph-name="uniF132" unicode="&#xf132;" horiz-adv-x="423" 
d="M330 -46h93v-18h-90h-243h-90v18h93l86 494h61zM280 124l-17 94h-106l-16 -94h139zM194 430l-33 -194h99l-35 194h-31zM112 -46h199l-27 152h-146z" />
    <glyph glyph-name="uniF133" unicode="&#xf133;" horiz-adv-x="224" 
d="M177 448c26 0 47 -21 47 -47v-418c0 -26 -21 -47 -47 -47h-130c-26 0 -47 21 -47 47v418c0 26 21 47 47 47h130zM205 -17v418c0 15 -13 28 -28 28h-130c-15 0 -28 -13 -28 -28v-418c0 -15 13 -28 28 -28h130c15 0 28 13 28 28zM112 406c36 0 65 -29 65 -65
s-29 -65 -65 -65s-65 29 -65 65s29 65 65 65zM112 294c26 0 47 21 47 47s-21 47 -47 47s-47 -21 -47 -47s21 -47 47 -47zM112 257c36 0 65 -29 65 -65s-29 -65 -65 -65s-65 29 -65 65s29 65 65 65zM112 145c26 0 47 21 47 47s-21 47 -47 47s-47 -21 -47 -47s21 -47 47 -47z
M112 108c36 0 65 -29 65 -65s-29 -65 -65 -65s-65 29 -65 65s29 65 65 65z" />
    <glyph glyph-name="uniF134" unicode="&#xf134;" 
d="M511 247c0 -26 7 -47 -19 -47h-14c0 -3 1 -5 1 -8c0 -30 -24 -54 -54 -54s-54 24 -54 54v4c-9 -9 -21 -15 -34 -15h-84c-5 -25 -27 -43 -53 -43c-24 0 -45 16 -52 38c-7 -22 -27 -38 -51 -38c-26 0 -48 19 -53 44c-24 2 -44 21 -44 46v173c0 26 21 47 47 47h290
c26 0 47 -21 47 -47v-2h80c26 0 47 -21 47 -47v-105zM97 157c19 0 35 16 35 35s-16 35 -35 35s-36 -16 -36 -35s17 -35 36 -35zM200 157c19 0 35 16 35 35s-16 35 -35 35s-35 -16 -35 -35s16 -35 35 -35zM366 228v173c0 16 -13 28 -29 28h-290c-16 0 -28 -12 -28 -28v-173
c0 -14 10 -26 24 -28c4 26 27 46 54 46c24 0 44 -16 51 -38c7 22 28 38 52 38c27 0 49 -20 53 -46h84c16 0 29 12 29 28zM492 298v45h-58v-24zM425 157c19 0 35 16 35 35s-16 35 -35 35s-35 -16 -35 -35s16 -35 35 -35zM493 219v13v6h-20v18h19v22l-77 28v56h76
c-4 11 -15 18 -27 18h-80v-152v0c10 11 25 18 41 18c20 0 37 -11 46 -27h21h1zM78 332c0 32 38 48 114 48s114 -16 114 -48s-38 -48 -114 -48s-114 16 -114 48z" />
    <glyph glyph-name="uniF135" unicode="&#xf135;" horiz-adv-x="447" 
d="M400 372c26 0 47 -20 47 -46v-4v-43v-297c0 -26 -21 -46 -47 -46h-46c-26 0 -47 20 -47 46v251h-114v-86l-193 155l193 146v-76h207zM428 322v4c0 15 -13 28 -28 28h-207h-19v18v39l-144 -109l144 -116v47v18h19h114h19v-18v-251c0 -15 13 -27 28 -27h46
c15 0 28 12 28 27v297v43z" />
    <glyph glyph-name="uniF136" unicode="&#xf136;" horiz-adv-x="447" 
d="M447 302l-193 -155v86h-114v-251c0 -26 -21 -46 -47 -46h-47c-26 0 -46 20 -46 46v297v43v4c0 26 20 46 46 46h208v76zM140 251h114h19v-18v-47l144 116l-144 109v-39v-18h-19h-208c-15 0 -27 -13 -27 -28v-4v-43v-297c0 -15 12 -27 27 -27h47c15 0 28 12 28 27v251v18
h19z" />
    <glyph glyph-name="uniF137" unicode="&#xf137;" 
d="M256 448c163 0 256 -65 256 -65l-140 -242s1 37 -113 37c-12 0 -24 0 -34 -1l24 -38c4 1 7 2 11 2c21 0 37 -17 37 -38s-16 -37 -37 -37s-37 16 -37 37c0 10 4 19 10 26l-28 45c-62 -9 -65 -33 -65 -33l-140 242s93 65 256 65zM279 103c0 10 -9 19 -19 19s-19 -9 -19 -19
s9 -18 19 -18s19 8 19 18zM370 174l117 202c-31 17 -112 53 -231 53s-200 -36 -231 -53l118 -203c11 7 27 14 51 18l-97 157l16 10l101 -164c13 1 28 3 45 3c52 0 89 -8 111 -23z" />
  </font>
</defs>
</svg>
